top of page

Süs Tavuğu Bayan Üreticiler Bilgilenme Gurubu

Herkese Açık·17 arkadaş
Landon Allen
Landon Allen

Cradle 2 The Grave Torrent Kat


The Brokenwood Mysteries S08 1080P x264 mp4 Thank you for your kind comments and feedback on my other torrents, your feedback is welcome.About the Series:In Brokenwood the scenery is idyllic and the people friendly, if a bit quirky.But beneath the pleasant veneer are dark secrets fuelled by greed, lust and envy,which all too often lead to murder.I hope you enjoy. Technical:GeneralComplete name : I:\The Brokenwood Mysteries S08\The Brokenwood Mysteries S08E01 - From the Cradle to the Grave 1080P x264 RB58.mp4Format : MPEG-4Format profile : Base MediaCodec ID : isom (isom/iso2/avc1/mp41)File size : 2.08 GiBDuration : 1 h 34 minOverall bit rate mode : VariableOverall bit rate : 3 140 kb/sWriting application : VideoReDo (Lavf58.29.100)VideoID : 1Format : AVCFormat/Info : Advanced Video CodecFormat profile : [email protected] Format settings : CABAC / 4 Ref FramesFormat settings, CABAC : YesFormat settings, Reference frames : 4 framesFormat settings, GOP : M=4, N=25Codec ID : avc1Codec ID/Info : Advanced Video CodingDuration : 1 h 34 minBit rate : 3 000 kb/sWidth : 1 920 pixelsHeight : 1 080 pixelsDisplay aspect ratio : 16:9Frame rate mode : ConstantFrame rate : 25.000 FPSColor space : YUVChroma subsampling : 4:2:0Bit depth : 8 bitsScan type : ProgressiveBits/(Pixel*Frame) : 0.058Stream size : 1.98 GiB (96%)Writing library : x264 core 160 r3000Encoding settings : cabac=1 / ref=1 / deblock=1:0:0Menus : 3Codec configuration box : avcCAudioID : 2Format : AAC LCFormat/Info : Advanced Audio Codec Low ComplexityCodec ID : mp4a-40-2Duration : 1 h 34 minDuration_LastFrame : -21 msBit rate mode : VariableBit rate : 125 kb/sMaximum bit rate : 128 kb/sChannel(s) : 2 channelsChannel layout : L RSampling rate : 48.0 kHzFrame rate : 46.875 FPS (1024 SPF)Compression mode : LossyStream size : 84.9 MiB (4%)Language : English




Cradle 2 The Grave Torrent Kat


Hakkında

Gruba hoş geldiniz! Diğer üyelerle bağlantı kurabilir, günce...

Arkadaş

bottom of page